Šablona pro xXx

Úvod » Šablony » Šablona pro xXx

<div style="background-color:#778899"><p style="border-top: 4mm ridge rgb(170, 50, 220, .6);></p><font face="Comic Sans MS"><p style="font-size:36px;color:#FFFFFF;text-shadow:1px 1px 8px #FF00FF;">Let / Flight (2012)(CZ) = CSFD 75%</p></font>


<img src="https://e-posta.eu/torrent/obrazky/files/Rentom/MV5BMTUxMjI1OTMxNl5BMl5BanBnXkFtZTcwNjc3NTY1OA%40%40._V1_.jpg">

<font face="Comic Sans MS"><p style="font-size:36px;color:#FFFFFF;text-shadow:1px 1px 8px #FF00FF;">Screen</p></font>
[img=http://e-posta.eu/torrent/obrazky/files/Rentom/Let%20%20Flight%20(2012)(CZ)%20%3D%20CSFD%2075%25.JPG] [img=http://e-posta.eu/torrent/obrazky/files/Rentom/Let%20%20Flight%20(2012)(CZ)%20%3D%20CSFD%2075%2501.JPG]

<p><a href="https://www.csfd.cz/film/299884-let/prehled/" target="_blank"; style="font-size:65px;color:#FFFFFF;text-shadow:1px 1px 8px #FF00FF;">CSFD</a></p>

<p style="font-size:18px;color:#FFFFFF;text-shadow:1px 1px 8px #FF00FF;">Jazyk: CZ 
Titulky: Ne
Žánr: Drama / Thriller
USA, 2012, 132 min


Režie: Robert Zemeckis
Scénář: John Gatins
Kamera: Don Burgess
Hudba: Alan Silvestri
Hrají: Denzel Washington, Don Cheadle, Kelly Reilly, John Goodman, Bruce Greenwood, Brian Geraghty, Tamara Tunie, Nadine Velazquez, Garcelle Beauvais, Melissa Leo, James Badge Dale, Rhoda Griffis, Ric Reitz, Sean Nix, Tom Nowicki, Steve Coulter, Michael Beasley, E. Roger Mitchell, Hal Williams, Ted Huckabee, Jill Jane Clements, Carlos Aviles, Dylan Kussman, Jessica J. Stowes, Bethany Anne Lind, Brian F. Durkin, Randy Thom, Kwesi Boakye
Producenti: Walter F. Parkes, Laurie MacDonald, Robert Zemeckis, Steve Starkey
Střih: Jeremiah O'Driscoll
Zvuk: Dennis Leonard, Randy Thom
Scénografie: Nelson Coates
Kostýmy: Louise Frogley<p>

<font face="Comic Sans MS"><p style="font-size:36px;color:#FFFFFF;text-shadow:1px 1px 8px #FF00FF;">Popis</p></font>

<p style="font-size:18px;color:#FFFFFF;text-shadow:1px 1px 8px #FF00FF;">Kapitán Whip Whitaker (Denzel Washington) je velezkušený pilot, kterému sebeprudší turbulence ani nestojí za zvýšení hlasu či adrenalinu v krvi. Když během rutinního letu jím pilotované dopravní letadlo vlétne do mohutné bouře, chladnokrevně ho vyvede do bezpečí, za což si vyslouží potlesk 96 cestujících a šesti členů posádky. Radost je předčasná, letadlu postupně začnou vynechávat funkce, je čím dál neovladatelnější a Whip se odhodlá k šílenému činu – otočí ho vzhůru nohama, což ho má déle udržet ve vzduchu a mezitím se pokusí najít co nejvhodnější místo k přistání. Před rovným pásem louky ho znovu otočí a ve dvousetkilometrové rychlosti sedne na zem. Jako zázrakem přežije 96 lidí. Když se Whip posléze probudí v nemocnici, dozví se, že se stal národním hrdinou. Adorace ale trvá jen do chvíle, než padne klíčová otázka: Co dělal kapitán před osudným letem? V tu chvíli pro něj začíná nový boj. Boj, který nakonec bude těžší než ten, který svedl se živly a neovladatelným letadlem.</p></font>

[youtube]JDs_XIJVK0k[/youtube]

<div style="margin:20px; margin-top:5px">
<input type="button" value="MediaInfo" style="height:35px;width:150px; background-color: #555; color: white; font-size: 18px; cursor: pointer; " onClick="if (this.parentNode.parentNode.getElementsByTagName('div')[1].getElementsByTagName('div')[0].style.display != '') { this.parentNode.parentNode.getElementsByTagName('div')[1].getElementsByTagName('div')[0].style.display = '';            this.innerText = 'MediaInfo'; this.value = 'MediaInfo'; } else { this.parentNode.parentNode.getElementsByTagName('div')[1].getElementsByTagName('div')[0].style.display = 'none'; this.innerText = 'MediaInfo'; this.value = 'MediaInfo'; }">
</div>
<div class="alt2" style="margin: 0px; padding: 6px; border: 0px inset;">
<div style="display: none;"><font face="Comic Sans MS"><p style="font-size:18px;color:#FFFFFF;text-shadow:1px 1px 8px #FF00FF;">Hlavní
Unique ID: 168348648403719580577546155723716462494 (0x7EA6C532C2870C1E037BA147C20E879E)
Celý název a cesta: C:\Users\...\Downloads\Torrent soubory\Let  Flight (2012)(CZ) = CSFD 75%.mkv
Formát: Matroska
Format version: Version 2
Velikost souboru: 2,57 GiB
Duration: 2 h 18 min
Celkový BitRate: 2 655 kb/s
Použitý software: Lavf51.12.1
Enkódoval: Lavf51.12.1

Video
ID: 1
Formát: AVC
Formát/Info: Advanced Video Codec
Format profile: Baseline@L1.3
Format settings: 1 Ref Frames
Format settings, CABAC: Ne
Format settings, Reference frames: 1 frame
Format settings, GOP: M=1, N=12
Codec ID: V_MPEG4/ISO/AVC
Duration: 2 h 18 min
Bit rate: 2 474 kb/s
Šířka: 1 280pixely
Výška: 720pixely
Poměr stran: 16:9
Frame rate mode: Constant
Frame rate: 24,000 FPS
Color space: YUV
Chroma subsampling: 4:2:0
Bit depth: 8 bits
Scan type: Progressive
Bits/(Pixel*Frame): 0.112
Stream size: 2,39 GiB (93%)
Default: Ano
Forced: Ne

Audio
ID: 2
Formát: MPEG Audio
Format version: Version 1
Format profile: Layer 3
Format settings: Joint stereo / MS Stereo
Codec ID: A_MPEG/L3
Codec ID/Hint: MP3
Duration: 2 h 18 min
Bit rate mode: Constant
Bit rate: 128 kb/s
Kanál(y): 2 kanály
Sampling rate: 44,1 kHz
Compression mode: Lossy
Stream size: 127 MiB (5%)
Enkódoval: LAME3.97
Default: Ano
Forced: Ne<p></div>
<p style="border:2px dashed #778899; font-size:18px;color:#FFFFFF;text-shadow:1px 1px 8px #FF00FF;"><marquee direction="down" scrollamount="4" height="50" ><center>Po stažení seed prosím</center></marquee></p>
<div style="text-align:right"><button style="background-color:#708090"><body><a href="#"><img src="https://e-posta.eu/torrent/obrazky/files/Rentom/nahoruproweb.gif" title="Zpět nahoru" width="30" height="30"></a></body></button></div></div>
[background=teal][color=beige][size=3][font=comic sans ms]

[img]http://e-posta.eu/torrent/obrazky/files/Rentom/MV5BMTUxMjI1OTMxNl5BMl5BanBnXkFtZTcwNjc3NTY1OA%40%40._V1_.jpg[/img]


[img=http://e-posta.eu/torrent/obrazky/files/Rentom/Let%20%20Flight%20(2012)(CZ)%20%3D%20CSFD%2075%25.JPG] [img=http://e-posta.eu/torrent/obrazky/files/Rentom/Let%20%20Flight%20(2012)(CZ)%20%3D%20CSFD%2075%2501.JPG]

Jazyk: CZ 
Titulky: Ne
Žánr: Hudební / Taneční
USA, 2013, 110 min

Režie: Benson Lee
Scénář: Brin Hill, Chris Parker
Kamera: Michael Barrett
Hudba: Christopher Lennertz
Hrají: Josh Holloway, Josh Peck, Chris Brown, Laz Alonso, Weronika Rosati, Giovanni V. Giusti, Caity Lotz, Joko Winterscheidt, Klaas Heufer-Umlauf, Keith Stallworth, Steve Terada, Terrence Jenkins, Alex Martin, Sabine Soetanto
Producenti: Beau Flynn, Tripp Vinson
Střih: Peter S. Elliot
Scénografie: Chris Cornwell
Kostýmy: Soyon An

[url]https://www.csfd.cz/film/306349-battle-of-the-year-the-dream-team/prehled/[/url]

Battle ofthe Year je pro tanečníky breakdance něco jako olympiáda. Na tomto turnaji se každý rok potkají ti nejlepší z nejlepších, ovšem žádná americká skupina nevyhrála už patnáct let. Proto se losangeleský hiphopový magnát a bývalý b-boy rozhodne, že je na čase vrátit USA na vrchol a najme kdysi schopného trenéra, aby sestavil hvězdný tým. Blake má pouhé tři měsíce na to, aby dal dohromady dvanáct talentovaných jedinců, kteří spolu dokážou spolupracovat a dotáhnou to až vysněnému titulu.

[youtube]QibqRB9Gs9k[/youtube]



[roll=Mediainfo]Hlavní
Unique ID: 178910910781197728550096334863433286208 (0x8698FCF0863B385E9A6BCABF27454240)
Celý název a cesta: C:\Users\...\Downloads\Torrent soubory\Battle of the Year The Dream Team.mkv
Formát: Matroska
Format version: Version 4
Velikost souboru: 2,70 GiB
Duration: 1 h 49 min
Celkový BitRate: 3 521 kb/s
Encoded date: UTC 2014-03-19 19:51:10
Použitý software: mkvmerge v6.7.0 ('Back to the Ground') 32bit built on Jan  8 2014 15:03:17
Enkódoval: libebml v1.3.0 + libmatroska v1.4.1

Video
ID: 1
Formát: AVC
Formát/Info: Advanced Video Codec
Format profile: Baseline@L4
Format settings: 1 Ref Frames
Format settings, CABAC: Ne
Format settings, Reference frames: 1 frame
Codec ID: V_MPEG4/ISO/AVC
Duration: 1 h 49 min
Bit rate: 3 100 kb/s
Šířka: 1 280pixely
Výška: 696pixely
Poměr stran: 1,85:1
Frame rate mode: Constant
Frame rate: 23,976 (24000/1001) FPS
Color space: YUV
Chroma subsampling: 4:2:0
Bit depth: 8 bits
Scan type: Progressive
Bits/(Pixel*Frame): 0.145
Stream size: 2,35 GiB (87%)
Enkódoval: x264 core 130 r2273 b3065e6
Nastavení enkoderu: cabac=0 / ref=1 / deblock=0:0:0 / analyse=0:0 / me=dia / subme=0 / psy=1 / psy_rd=1.00:0.00 / mixed_ref=0 / me_range=16 / chroma_me=1 / trellis=0 / 8x8dct=0 / cqm=0 / deadzone=21,11 / fast_pskip=1 / chroma_qp_offset=0 / threads=12 / lookahead_threads=2 / sliced_threads=0 / nr=0 / decimate=1 / interlaced=0 / bluray_compat=0 / constrained_intra=0 / bframes=0 / weightp=0 / keyint=240 / keyint_min=24 / scenecut=0 / intra_refresh=0 / rc_lookahead=0 / rc=abr / mbtree=0 / bitrate=3100 / ratetol=1.0 / qcomp=0.60 / qpmin=0 / qpmax=69 / qpstep=4 / vbv_maxrate=20000 / vbv_bufsize=25000 / nal_hrd=none / ip_ratio=1.40 / aq=0
Jazyk: English
Default: Ano
Forced: Ne
Color range: Limited
Color primaries: BT.709
Transfer characteristics: BT.709
Matrix coefficients: BT.709

Audio
ID: 2
Formát: AC-3
Formát/Info: Audio Coding 3
Commercial name: Dolby Digital
Codec ID: A_AC3
Duration: 1 h 49 min
Bit rate mode: Constant
Bit rate: 384 kb/s
Kanál(y): 6 kanály
Channel layout: L R C LFE Ls Rs
Sampling rate: 48,0 kHz
Frame rate: 31,250 FPS (1536 SPF)
Compression mode: Lossy
Stream size: 301 MiB (11%)
Jazyk: Czech
Service kind: Complete Main
Default: Ano
Forced: Ne
[/roll]

[/font][/size][/color]

po Kliknuti na policko Pridaj Torrent na obrazku

zkopirujte si announce url : http://announce.sktorrent.eu/torrent/announce.php , kterou vlozite do klienta treba Utorrent na vytoreni torentu

po vlozeni adresy announce v Utorrentu si vyberete data, ktere chcete upladovat na server Film,Hra,Serial. atd…

po vytovoreni torrentu bez Diakritiky ( tj. bez hacku a carek ) vlozite torrent vytvoreny utorrentem do policka Pridaj Torrent

v policku Kategoria si vyberete vhodny popis k datum co upladujete pokud se jedna o hru tak games jestli o film tak film atd..

bez Diakritiky ( tj. bez hacku a carek ) kolonka s File Name(optional) musi obsahovat cesky nazev / anglicky nazev, pokud se jedna o film napriklad z csfd.cz Stoker / Stokerovi (2013)1080p => CSFD 67% nezapomenout na rok popripadne kvalitu 1080p nebo jinou, v jakem jazyce CZ EN atd.. pokud film je s titulkami tak popis (CzTitulky) nebo 3D a nezapomenout na hodnoceni => CSFD 00% cislo hodnoceni naleznete na csfd.cz podle filmu, ktery uploadujete. Jestli se jedna o hru tak bodovani uspesnosti.

do tohoto pole se vlozi napr. Jazyk: ,Titulky: ,Rok vydani: ,Delka:, Zanr:, Odkaz na csfd: ,obrazek , popis s MediaInfo ,popis o filmu s csfd.cz

pro aktivaci manazeru uloziste obrazku nahrani obrazku pokliknout na onen trojuhlenik ktery aktivuje toto okno ktere se po druhe navsteve uz neaktivuje a je aktivni nadale kde uzivatele budou nahravat obrazky k torrentum a cesta se smeruje http://e-posta.eu/torrent/obrazky/files/ nick uploadera a nazvem souboru s koncovkou *.jpg atd.. napriklad : http://e-posta.eu/torrent/obrazky/files/laxq/w10.jpg kde nahradi v sekci obrazek vlastnim obrazkem ulozeny na svem profilu

po vypsani vsech veci se odesle torrent kliknutim na tlacitko ,,send,,

kliknete na Download a stahnete, dáte otevřít v utorrentu a v Uložit jako vyberete správnou cestu k těm souborům které budete uploadovat zájemcům o váš nahozený torrent

Zdroj: https://sktorrent.eu/

Zdroj: YouTube Argee Man

xXx

– Název – Česky + original – podle csfd.cz – pokud není, napsat jen ten, který je tam uveden
– Délka
– Jazyk zvuku + kvalita a počet kanalů
– Titulky
– Pokud se jedná o DVD uvést zda obsahuje menu a bonusy
– Kompletní výpis z MediaInfo
– Screenshot

Stáhni si a nainstaluj MediaInfo z jejich stránek: MediaInfo

  1. Otevři MI, klikni na soubor, otevřít, soubor Alt+O nebo přetáhni soubor do MI myší

2. Vyber správný soubor a zvol otevřít

3. Zvol zobrazit a vyber Text

4. Hotovo. Zkopíruj do txt šablony a pokud můžu poradit, tak si to ještě poskládej k sobě ať to je přehledné a člověk se v tom může lépe orientovat

Když to jen okopíruješ a vložíš

Hlavní
Unique ID                                : 168348648403719580577546155723716462494 (0x7EA6C532C2870C1E037BA147C20E879E)
Celý název a cesta                       : C:\Users\...\Downloads\Torrent soubory\Let  Flight (2012)(CZ) = CSFD 75%.mkv
Formát                                   : Matroska
Format version                           : Version 2
Velikost souboru                         : 2,57 GiB
Duration                                 : 2 h 18 min
Celkový BitRate                          : 2 655 kb/s
Použitý software                         : Lavf51.12.1
Enkódoval                                : Lavf51.12.1

Video
ID                                       : 1
Formát                                   : AVC
Formát/Info                              : Advanced Video Codec
Format profile                           : Baseline@L1.3
Format settings                          : 1 Ref Frames
Format settings, CABAC                   : Ne
Format settings, Reference frames        : 1 frame
Format settings, GOP                     : M=1, N=12
Codec ID                                 : V_MPEG4/ISO/AVC
Duration                                 : 2 h 18 min
Bit rate                                 : 2 474 kb/s
Šířka                                    : 1 280pixely
Výška                                    : 720pixely
Poměr stran                              : 16:9
Frame rate mode                          : Constant
Frame rate                               : 24,000 FPS
Color space                              : YUV
Chroma subsampling                       : 4:2:0
Bit depth                                : 8 bits
Scan type                                : Progressive
Bits/(Pixel*Frame)                       : 0.112
Stream size                              : 2,39 GiB (93%)
Default                                  : Ano
Forced                                   : Ne

Audio
ID                                       : 2
Formát                                   : MPEG Audio
Format version                           : Version 1
Format profile                           : Layer 3
Format settings                          : Joint stereo / MS Stereo
Codec ID                                 : A_MPEG/L3
Codec ID/Hint                            : MP3
Duration                                 : 2 h 18 min
Bit rate mode                            : Constant
Bit rate                                 : 128 kb/s
Kanál(y)                                 : 2 kanály
Sampling rate                            : 44,1 kHz
Compression mode                         : Lossy
Stream size                              : 127 MiB (5%)
Enkódoval                                : LAME3.97
Default                                  : Ano
Forced                                   : Ne

Když to poskládáš

Hlavní
Unique ID: 168348648403719580577546155723716462494 (0x7EA6C532C2870C1E037BA147C20E879E)
Celý název a cesta: C:\Users\...\Downloads\Torrent soubory\Let  Flight (2012)(CZ) = CSFD 75%.mkv
Formát: Matroska
Format version: Version 2
Velikost souboru: 2,57 GiB
Duration: 2 h 18 min
Celkový BitRate: 2 655 kb/s
Použitý software: Lavf51.12.1
Enkódoval: Lavf51.12.1

Video
ID: 1
Formát: AVC
Formát/Info: Advanced Video Codec
Format profile: Baseline@L1.3
Format settings: 1 Ref Frames
Format settings, CABAC: Ne
Format settings, Reference frames: 1 frame
Format settings, GOP: M=1, N=12
Codec ID: V_MPEG4/ISO/AVC
Duration: 2 h 18 min
Bit rate: 2 474 kb/s
Šířka: 1 280pixely
Výška: 720pixely
Poměr stran: 16:9
Frame rate mode: Constant
Frame rate: 24,000 FPS
Color space: YUV
Chroma subsampling: 4:2:0
Bit depth: 8 bits
Scan type: Progressive
Bits/(Pixel*Frame): 0.112
Stream size: 2,39 GiB (93%)
Default: Ano
Forced: Ne

Audio
ID: 2
Formát: MPEG Audio
Format version: Version 1
Format profile: Layer 3
Format settings: Joint stereo / MS Stereo
Codec ID: A_MPEG/L3
Codec ID/Hint: MP3
Duration: 2 h 18 min
Bit rate mode: Constant
Bit rate: 128 kb/s
Kanál(y): 2 kanály
Sampling rate: 44,1 kHz
Compression mode: Lossy
Stream size: 127 MiB (5%)
Enkódoval: LAME3.97
Default: Ano
Forced: Ne

Klikni na upload

Poté klikni na: Viem presne co robim a BBCode je moje druhe meno

Pokud u čísla 2 nevidíš domeček a svůj Nick tak klikni na červený trojúhelník u čísla 1 aby se to propojilo s “poštou”

Až tam bude domeček se tvým Nickem tak na něj klikni. Poté jak vidíš u čísla 3 přidej, nahraj obrázek. Vpravo se Ti nahraje obrázek a můžeš si zobrazit podrobnosti. Dvojklikem myši na obrázek se ti otevře v novém okně.

Zkopíruj url obrázku. Někdy se stane, že chybí začátek url http:// na to pozor!

url vypadá takto:

http://e-posta.eu/torrent/obrazky/files/Rentom/221.gif

Obrázek v plné velikosti vložíš takhle:

[img]http://e-posta.eu/torrent/obrazky/files/Rentom/221.gif[/img]

Obrázek v náhledu a otevřením v plné velikosti v jiném okně vložíš takhle:

[img=http://e-posta.eu/torrent/obrazky/files/Rentom/221.gif]
  1. Stáhni a nainstaluj http://en.kmplayer.com

2. Otevři film ze kterého si chceš udělat screenshot

3. Klikni pravým tlačítkem myši do obrazovky a vyber Sejmout a pak vytvořit storyboard nebo klávesovou zkratkou Ctrl+Alt+S

4. Zadej hodnoty a stiskni OK. Přednastavená cesta pro ukládání obrázků je: C:\KMPlayer\Capture. Dělám 1na1 a 3×3. Když sejmeš víc obrázků, tak si to nezapomeň přejmenovat nebo se Ti ten první přepíše.

5. Výsledek