Šablona pro hudební videa (DVD, AVI, HD, Blu-Ray)

Úvod » Šablony » Šablona pro hudební videa (DVD, AVI, HD, Blu-Ray)

<div style="background-color:#778899"><p style="border-top: 4mm ridge rgb(170, 50, 220, .6);></p><font face="Comic Sans MS"><p style="font-size:36px;color:#FFFFFF;text-shadow:1px 1px 8px #FF00FF;">Eagles - Legacy (2018) DVD9</p></font>


<img src="https://e-posta.eu/torrent/obrazky/files/Rentom/08122793.jpg.jpg">

<p style="font-size:18px;color:#FFFFFF;text-shadow:1px 1px 8px #FF00FF;">
Eagles - Legacy
Rok vydání: 2018
Délka: 01:38:33 + 00:03:33
Žánr: Rock
Jazyk: ENG / AC3 / 448 kbps / 48.0 khz / 6 ch
Titulky: Ne
Menu/Bonusy: Ne/Ano
<p>

<font face="Comic Sans MS"><p style="font-size:36px;color:#FFFFFF;text-shadow:1px 1px 8px #FF00FF;">TRACKLIST</p></font>

<p style="font-size:18px;color:#FFFFFF;text-shadow:1px 1px 8px #FF00FF;">
Hell Freezes Over

1 Hotel California
2 Taquila Sunrise
3 Help Me Through The Night
4 The Heart Of The Matter
5 Love Will Keep Us Alive
6 Learn To Be Still
7 Pretty Maids All In A Row
8 The Girl From Yesterday
9 Wasted Time
10 I Can't Tell You Why
11 New York Minute
12 The Last Resort
13 Take It Easy
14 Life In The Fast Lane
15 In The City
16 Get Over It
17 Desperado

Bonus
18 Seven Bridges Road
</p></font>

[youtube]HDgj3Ag-Zww[/youtube]

<div style="margin:20px; margin-top:5px">
<input type="button" value="MediaInfo" style="height:35px;width:150px; background-color: #555; color: white; font-size: 18px; cursor: pointer; " onClick="if (this.parentNode.parentNode.getElementsByTagName('div')[1].getElementsByTagName('div')[0].style.display != '') { this.parentNode.parentNode.getElementsByTagName('div')[1].getElementsByTagName('div')[0].style.display = '';            this.innerText = 'MediaInfo'; this.value = 'MediaInfo'; } else { this.parentNode.parentNode.getElementsByTagName('div')[1].getElementsByTagName('div')[0].style.display = 'none'; this.innerText = 'MediaInfo'; this.value = 'MediaInfo'; }">
</div>
<div class="alt2" style="margin: 0px; padding: 6px; border: 0px inset;">
<div style="display: none;"><font face="Comic Sans MS"><p style="font-size:18px;color:#FFFFFF;text-shadow:1px 1px 8px #FF00FF;">Hlavné parametre
Celý názov a cesta: H:\Hudba DVD\Eagles - Legacy (DVD) 2018\VIDEO_TS\VTS_01_1.VOB
Formát: MPEG-PS
Veľkosť súboru: 1 023 MiB
Trvanie: 18 min 14 sek.
Overall bit rate mode: Variabilný dátový tok
Celkový dátový tok: 7 844 kb/s

Video
ID: 224 (0xE0)
Formát: MPEG Video
Format version: Version 2
Profil formátu: Main@Main
Nastavenia formátu: BVOP
Format settings, BVOP: Áno
Format settings, Matrix: Pôvodné
Format settings, GOP: M=3, N=10
Format settings, picture structure: Frame
Trvanie: 18 min 14 sek.
Režim dátového toku: Variabilný dátový tok
Dátový tok: 4 194 kb/s
Maximálny dátový tok: 6 000 kb/s
Šírka: 720 pixelov
Výška: 480 pixelov
Pomer strán: 4:3
Frekvencia snímok: 29,970 (30000/1001) snímok/sek.
Štandard: NTSC
Color space: YUV
Chroma subsampling: 4:2:0
Bit depth: 8 bitov
Scan type: Prekladané
Scan order: Horný riadok ako prvý
Compression mode: Lossy
Bitov/(Bod*Snímka): 0.405
Time code of first frame: 01:00:47:20
Time code source: Group of pictures header
GOP, Open/Closed: Open
Stream size: 547 MiB (53%)
Color primaries: BT.601 NTSC
Transfer characteristics: BT.601
Matrix coefficients: BT.601

Audio #1
ID: 189 (0xBD)-129 (0x81)
Formát: AC-3
Formát/Info: Audio Coding 3
Commercial name: Dolby Digital
Muxing mode: DVD-Video
Trvanie: 18 min 14 sek.
Režim dátového toku: Konštantný dátový tok
Dátový tok: 448 kb/s
Kanál(y): 6 kanálov
Channel layout: L R C LFE Ls Rs
Sampling rate: 48,0 kHz
Frekvencia snímok: 31,250 snímok/sek. (1536 SPF)
Compression mode: Lossy
Stream size: 58,4 MiB (6%)
Service kind: Complete Main
<p></div>
<p style="border:2px dashed #778899; font-size:18px;color:#FFFFFF;text-shadow:1px 1px 8px #FF00FF;"><marquee direction="down" scrollamount="4" height="50" ><center>Po stažení seed prosím</center></marquee></p>
<div style="text-align:right"><button style="background-color:#708090"><body><a href="#"><img src="https://e-posta.eu/torrent/obrazky/files/Rentom/nahoruproweb.gif" title="Zpět nahoru" width="30" height="30"></a></body></button></div></div>
[background=teal][color=beige][size=3][font=comic sans ms]

[img]https://e-posta.eu/torrent/obrazky/files/Rentom/08122793.jpg.jpg[/img]

Eagles - Legacy
Rok vydání: 2018
Délka: 01:38:33 + 00:03:33
Žánr: Rock
Jazyk: ENG / AC3 / 448 kbps / 48.0 khz / 6 ch
Titulky: Ne
Menu/Bonusy: Ne/Ano

TRACKLIST

Hell Freezes Over

1 Hotel California
2 Taquila Sunrise
3 Help Me Through The Night
4 The Heart Of The Matter
5 Love Will Keep Us Alive
6 Learn To Be Still
7 Pretty Maids All In A Row
8 The Girl From Yesterday
9 Wasted Time
10 I Can't Tell You Why
11 New York Minute
12 The Last Resort
13 Take It Easy
14 Life In The Fast Lane
15 In The City
16 Get Over It
17 Desperado

Bonus
18 Seven Bridges Road


[youtube]HDgj3Ag-Zww[/youtube]


[roll=Mediainfo]
Hlavné parametre
Celý názov a cesta: H:\Hudba DVD\Eagles - Legacy (DVD) 2018\VIDEO_TS\VTS_01_1.VOB
Formát: MPEG-PS
Veľkosť súboru: 1 023 MiB
Trvanie: 18 min 14 sek.
Overall bit rate mode: Variabilný dátový tok
Celkový dátový tok: 7 844 kb/s

Video
ID: 224 (0xE0)
Formát: MPEG Video
Format version: Version 2
Profil formátu: Main@Main
Nastavenia formátu: BVOP
Format settings, BVOP: Áno
Format settings, Matrix: Pôvodné
Format settings, GOP: M=3, N=10
Format settings, picture structure: Frame
Trvanie: 18 min 14 sek.
Režim dátového toku: Variabilný dátový tok
Dátový tok: 4 194 kb/s
Maximálny dátový tok: 6 000 kb/s
Šírka: 720 pixelov
Výška: 480 pixelov
Pomer strán: 4:3
Frekvencia snímok: 29,970 (30000/1001) snímok/sek.
Štandard: NTSC
Color space: YUV
Chroma subsampling: 4:2:0
Bit depth: 8 bitov
Scan type: Prekladané
Scan order: Horný riadok ako prvý
Compression mode: Lossy
Bitov/(Bod*Snímka): 0.405
Time code of first frame: 01:00:47:20
Time code source: Group of pictures header
GOP, Open/Closed: Open
Stream size: 547 MiB (53%)
Color primaries: BT.601 NTSC
Transfer characteristics: BT.601
Matrix coefficients: BT.601

Audio #1
ID: 189 (0xBD)-129 (0x81)
Formát: AC-3
Formát/Info: Audio Coding 3
Commercial name: Dolby Digital
Muxing mode: DVD-Video
Trvanie: 18 min 14 sek.
Režim dátového toku: Konštantný dátový tok
Dátový tok: 448 kb/s
Kanál(y): 6 kanálov
Channel layout: L R C LFE Ls Rs
Sampling rate: 48,0 kHz
Frekvencia snímok: 31,250 snímok/sek. (1536 SPF)
Compression mode: Lossy
Stream size: 58,4 MiB (6%)
Service kind: Complete Main
[/roll]

[/font][/size][/color]

po Kliknuti na policko Pridaj Torrent na obrazku

zkopirujte si announce url : http://announce.sktorrent.eu/torrent/announce.php , kterou vlozite do klienta treba Utorrent na vytoreni torentu

po vlozeni adresy announce v Utorrentu si vyberete data, ktere chcete upladovat na server Film,Hra,Serial. atd…

po vytovoreni torrentu bez Diakritiky ( tj. bez hacku a carek ) vlozite torrent vytvoreny utorrentem do policka Pridaj Torrent

v policku Kategoria si vyberete vhodny popis k datum co upladujete pokud se jedna o hru tak games jestli o film tak film atd..

bez Diakritiky ( tj. bez hacku a carek ) kolonka s File Name(optional) musi obsahovat cesky nazev / anglicky nazev, pokud se jedna o film napriklad z csfd.cz Stoker / Stokerovi (2013)1080p => CSFD 67% nezapomenout na rok popripadne kvalitu 1080p nebo jinou, v jakem jazyce CZ EN atd.. pokud film je s titulkami tak popis (CzTitulky) nebo 3D a nezapomenout na hodnoceni => CSFD 00% cislo hodnoceni naleznete na csfd.cz podle filmu, ktery uploadujete. Jestli se jedna o hru tak bodovani uspesnosti.

do tohoto pole se vlozi napr. Jazyk: ,Titulky: ,Rok vydani: ,Delka:, Zanr:, Odkaz na csfd: ,obrazek , popis s MediaInfo ,popis o filmu s csfd.cz

pro aktivaci manazeru uloziste obrazku nahrani obrazku pokliknout na onen trojuhlenik ktery aktivuje toto okno ktere se po druhe navsteve uz neaktivuje a je aktivni nadale kde uzivatele budou nahravat obrazky k torrentum a cesta se smeruje http://e-posta.eu/torrent/obrazky/files/ nick uploadera a nazvem souboru s koncovkou *.jpg atd.. napriklad : http://e-posta.eu/torrent/obrazky/files/laxq/w10.jpg kde nahradi v sekci obrazek vlastnim obrazkem ulozeny na svem profilu

po vypsani vsech veci se odesle torrent kliknutim na tlacitko ,,send,,

kliknete na Download a stahnete, dáte otevřít v utorrentu a v Uložit jako vyberete správnou cestu k těm souborům které budete uploadovat zájemcům o váš nahozený torrent

Zdroj: https://sktorrent.eu/

Zdroj: YouTube Argee Man

HUDEBNÍ VIDEA (DVD, AVI, HD, Blu-Ray)

– Název + interpret
– Rok vydání
– Délka
– Žánr
– Jazyk zvuku + kvalita a počet kanálů
– Titulky
– Zda obsahuje menu a bonusy (u DVD a BluRay)
– Kompletní výpis z MediaInfo  
– Tracklist
– Obrázek

Stáhni si a nainstaluj MediaInfo z jejich stránek: MediaInfo

  1. Otevři MI, klikni na soubor, otevřít, soubor Alt+O nebo přetáhni soubor do MI myší

2. Vyber správný soubor a zvol otevřít

3. Zvol zobrazit a vyber Text

4. Hotovo. Zkopíruj do txt šablony a pokud můžu poradit, tak si to ještě poskládej k sobě ať to je přehledné a člověk se v tom může lépe orientovat

Když to jen okopíruješ a vložíš

Hlavní
Unique ID                                : 168348648403719580577546155723716462494 (0x7EA6C532C2870C1E037BA147C20E879E)
Celý název a cesta                       : C:\Users\...\Downloads\Torrent soubory\Let  Flight (2012)(CZ) = CSFD 75%.mkv
Formát                                   : Matroska
Format version                           : Version 2
Velikost souboru                         : 2,57 GiB
Duration                                 : 2 h 18 min
Celkový BitRate                          : 2 655 kb/s
Použitý software                         : Lavf51.12.1
Enkódoval                                : Lavf51.12.1

Video
ID                                       : 1
Formát                                   : AVC
Formát/Info                              : Advanced Video Codec
Format profile                           : Baseline@L1.3
Format settings                          : 1 Ref Frames
Format settings, CABAC                   : Ne
Format settings, Reference frames        : 1 frame
Format settings, GOP                     : M=1, N=12
Codec ID                                 : V_MPEG4/ISO/AVC
Duration                                 : 2 h 18 min
Bit rate                                 : 2 474 kb/s
Šířka                                    : 1 280pixely
Výška                                    : 720pixely
Poměr stran                              : 16:9
Frame rate mode                          : Constant
Frame rate                               : 24,000 FPS
Color space                              : YUV
Chroma subsampling                       : 4:2:0
Bit depth                                : 8 bits
Scan type                                : Progressive
Bits/(Pixel*Frame)                       : 0.112
Stream size                              : 2,39 GiB (93%)
Default                                  : Ano
Forced                                   : Ne

Audio
ID                                       : 2
Formát                                   : MPEG Audio
Format version                           : Version 1
Format profile                           : Layer 3
Format settings                          : Joint stereo / MS Stereo
Codec ID                                 : A_MPEG/L3
Codec ID/Hint                            : MP3
Duration                                 : 2 h 18 min
Bit rate mode                            : Constant
Bit rate                                 : 128 kb/s
Kanál(y)                                 : 2 kanály
Sampling rate                            : 44,1 kHz
Compression mode                         : Lossy
Stream size                              : 127 MiB (5%)
Enkódoval                                : LAME3.97
Default                                  : Ano
Forced                                   : Ne

Když to poskládáš

Hlavní
Unique ID: 168348648403719580577546155723716462494 (0x7EA6C532C2870C1E037BA147C20E879E)
Celý název a cesta: C:\Users\...\Downloads\Torrent soubory\Let  Flight (2012)(CZ) = CSFD 75%.mkv
Formát: Matroska
Format version: Version 2
Velikost souboru: 2,57 GiB
Duration: 2 h 18 min
Celkový BitRate: 2 655 kb/s
Použitý software: Lavf51.12.1
Enkódoval: Lavf51.12.1

Video
ID: 1
Formát: AVC
Formát/Info: Advanced Video Codec
Format profile: Baseline@L1.3
Format settings: 1 Ref Frames
Format settings, CABAC: Ne
Format settings, Reference frames: 1 frame
Format settings, GOP: M=1, N=12
Codec ID: V_MPEG4/ISO/AVC
Duration: 2 h 18 min
Bit rate: 2 474 kb/s
Šířka: 1 280pixely
Výška: 720pixely
Poměr stran: 16:9
Frame rate mode: Constant
Frame rate: 24,000 FPS
Color space: YUV
Chroma subsampling: 4:2:0
Bit depth: 8 bits
Scan type: Progressive
Bits/(Pixel*Frame): 0.112
Stream size: 2,39 GiB (93%)
Default: Ano
Forced: Ne

Audio
ID: 2
Formát: MPEG Audio
Format version: Version 1
Format profile: Layer 3
Format settings: Joint stereo / MS Stereo
Codec ID: A_MPEG/L3
Codec ID/Hint: MP3
Duration: 2 h 18 min
Bit rate mode: Constant
Bit rate: 128 kb/s
Kanál(y): 2 kanály
Sampling rate: 44,1 kHz
Compression mode: Lossy
Stream size: 127 MiB (5%)
Enkódoval: LAME3.97
Default: Ano
Forced: Ne

Klikni na upload

Poté klikni na: Viem presne co robim a BBCode je moje druhe meno

Pokud u čísla 2 nevidíš domeček a svůj Nick tak klikni na červený trojúhelník u čísla 1 aby se to propojilo s “poštou”

Až tam bude domeček se tvým Nickem tak na něj klikni. Poté jak vidíš u čísla 3 přidej, nahraj obrázek. Vpravo se Ti nahraje obrázek a můžeš si zobrazit podrobnosti. Dvojklikem myši na obrázek se ti otevře v novém okně.

Zkopíruj url obrázku. Někdy se stane, že chybí začátek url http:// na to pozor!

url vypadá takto:

http://e-posta.eu/torrent/obrazky/files/Rentom/221.gif

Obrázek v plné velikosti vložíš takhle:

[img]http://e-posta.eu/torrent/obrazky/files/Rentom/221.gif[/img]

Obrázek v náhledu a otevřením v plné velikosti v jiném okně vložíš takhle:

[img=http://e-posta.eu/torrent/obrazky/files/Rentom/221.gif]