Šablony

Úvod » Šablony

Toto bude vzorová šablona pro pokročilé a bude přiložena ke každé kategorii zvlášť dle pravidel popisu dané kategorie. Bude se lišit jen v popisu. Už záleží jak si jí upravíš. Vše potřebné najdeš na těchto stránkách.

Pro začátečníky bude vzorová šablona přiložena také v základních kódech dle SkT.

Na editaci svého torrentu máš 24hodin

Šablona pro filmy , Šablona pro hudbu, mluvené slovo , Šablona pro hudební videa (DVD, AVI, HD, Blu-Ray) , Šablona pro hry , Šablona pro software , Šablona pro Mobil, PDA , Šablona pro xXx , Šablona pro knihy, časopisy , Šablona pro obrázky, fotky, tapety

Let / Flight (2012)(CZ) = CSFD 75%



Screen


CSFD


Jazyk: CZ
Titulky: Ne
Žánr: Drama / Thriller
USA, 2012, 132 min


Režie: Robert Zemeckis
Scénář: John Gatins
Kamera: Don Burgess
Hudba: Alan Silvestri
Hrají: Denzel Washington, Don Cheadle, Kelly Reilly, John Goodman, Bruce Greenwood, Brian Geraghty, Tamara Tunie, Nadine Velazquez, Garcelle Beauvais, Melissa Leo, James Badge Dale, Rhoda Griffis, Ric Reitz, Sean Nix, Tom Nowicki, Steve Coulter, Michael Beasley, E. Roger Mitchell, Hal Williams, Ted Huckabee, Jill Jane Clements, Carlos Aviles, Dylan Kussman, Jessica J. Stowes, Bethany Anne Lind, Brian F. Durkin, Randy Thom, Kwesi Boakye
Producenti: Walter F. Parkes, Laurie MacDonald, Robert Zemeckis, Steve Starkey
Střih: Jeremiah O’Driscoll
Zvuk: Dennis Leonard, Randy Thom
Scénografie: Nelson Coates
Kostýmy: Louise Frogley


Popis


Kapitán Whip Whitaker (Denzel Washington) je velezkušený pilot, kterému sebeprudší turbulence ani nestojí za zvýšení hlasu či adrenalinu v krvi. Když během rutinního letu jím pilotované dopravní letadlo vlétne do mohutné bouře, chladnokrevně ho vyvede do bezpečí, za což si vyslouží potlesk 96 cestujících a šesti členů posádky. Radost je předčasná, letadlu postupně začnou vynechávat funkce, je čím dál neovladatelnější a Whip se odhodlá k šílenému činu – otočí ho vzhůru nohama, což ho má déle udržet ve vzduchu a mezitím se pokusí najít co nejvhodnější místo k přistání. Před rovným pásem louky ho znovu otočí a ve dvousetkilometrové rychlosti sedne na zem. Jako zázrakem přežije 96 lidí. Když se Whip posléze probudí v nemocnici, dozví se, že se stal národním hrdinou. Adorace ale trvá jen do chvíle, než padne klíčová otázka: Co dělal kapitán před osudným letem? V tu chvíli pro něj začíná nový boj. Boj, který nakonec bude těžší než ten, který svedl se živly a neovladatelným letadlem.



Hlavní
Unique ID: 168348648403719580577546155723716462494 (0x7EA6C532C2870C1E037BA147C20E879E)
Celý název a cesta: C:\Users\…\Downloads\Torrent soubory\Let Flight (2012)(CZ) = CSFD 75%.mkv
Formát: Matroska
Format version: Version 2
Velikost souboru: 2,57 GiB
Duration: 2 h 18 min
Celkový BitRate: 2 655 kb/s
Použitý software: Lavf51.12.1
Enkódoval: Lavf51.12.1

Video
ID: 1
Formát: AVC
Formát/Info: Advanced Video Codec
Format profile: Baseline@L1.3
Format settings: 1 Ref Frames
Format settings, CABAC: Ne
Format settings, Reference frames: 1 frame
Format settings, GOP: M=1, N=12
Codec ID: V_MPEG4/ISO/AVC
Duration: 2 h 18 min
Bit rate: 2 474 kb/s
Šířka: 1 280pixely
Výška: 720pixely
Poměr stran: 16:9
Frame rate mode: Constant
Frame rate: 24,000 FPS
Color space: YUV
Chroma subsampling: 4:2:0
Bit depth: 8 bits
Scan type: Progressive
Bits/(Pixel*Frame): 0.112
Stream size: 2,39 GiB (93%)
Default: Ano
Forced: Ne

Audio
ID: 2
Formát: MPEG Audio
Format version: Version 1
Format profile: Layer 3
Format settings: Joint stereo / MS Stereo
Codec ID: A_MPEG/L3
Codec ID/Hint: MP3
Duration: 2 h 18 min
Bit rate mode: Constant
Bit rate: 128 kb/s
Kanál(y): 2 kanály
Sampling rate: 44,1 kHz
Compression mode: Lossy
Stream size: 127 MiB (5%)
Enkódoval: LAME3.97
Default: Ano
Forced: Ne

Po stažení seed prosím