Základní kódy dle SkT

Úvod » Rady, Tipy, Triky » Základní kódy dle SkT

Vybral jsem kódy co jsou potřeba pro vytvoření popisu.

tučné písmo

[b]tucne pismo[/b]

kurzíva

[i]kurzíva[/i]

podtržený text

[u]podtržený text[/u]

barva písma červená

[color=red]barva písma červená[/color]

velikost písma

[size=5]velikost písma[/size]

změna písma

[font=comic sans ms]změna písma[/font]

[background=teal] změna pozadí barvy

[background=teal]změna pozadí barvy

obrázek v plné velikosti [img][/img]

[img]http://e-posta.eu/torrent/obrazky/files/Rentom/obr.jpg[/img]

obrázek v náhledu a po kliknutí se zobrazí v plné velikosti [img=]

[img=http://e-posta.eu/torrent/obrazky/files/Rentom/obr.jpg]

YouTube – vkládáme jen ten konec [youtube][/youtube]

https://www.youtube.com/watch?v=Bd0_Dm2xlEM
[youtube]Bd0_Dm2xlEM[/youtube]

odkaz na csfd [url][/url]

[url]https://www.csfd.cz/film/118334-hokejovy-zazrak/prehled/[/url]

pro výpis z mediainfo můžeme použít [roll=Mediainfo]zde vložit výpis z MI[/roll]Malá rada: text si poskládáme k sobě když si to zkopírujeme z MI

[roll=Mediainfo]Hlavní
Unique ID: 178910910781197728550096334863433286208 (0x8698FCF0863B385E9A6BCABF27454240)
Celý název a cesta: C:\Users\...\Downloads\Torrent soubory\Battle of the Year The Dream Team.mkv
Formát: Matroska
Format version: Version 4
Velikost souboru: 2,70 GiB
Duration: 1 h 49 min
Celkový BitRate: 3 521 kb/s
Encoded date: UTC 2014-03-19 19:51:10
Použitý software: mkvmerge v6.7.0 ('Back to the Ground') 32bit built on Jan  8 2014 15:03:17
Enkódoval: libebml v1.3.0 + libmatroska v1.4.1

Video
ID: 1
Formát: AVC
Formát/Info: Advanced Video Codec
Format profile: Baseline@L4
Format settings: 1 Ref Frames
Format settings, CABAC: Ne
Format settings, Reference frames: 1 frame
Codec ID: V_MPEG4/ISO/AVC
Duration: 1 h 49 min
Bit rate: 3 100 kb/s
Šířka: 1 280pixely
Výška: 696pixely
Poměr stran: 1,85:1
Frame rate mode: Constant
Frame rate: 23,976 (24000/1001) FPS
Color space: YUV
Chroma subsampling: 4:2:0
Bit depth: 8 bits
Scan type: Progressive
Bits/(Pixel*Frame): 0.145
Stream size: 2,35 GiB (87%)
Enkódoval: x264 core 130 r2273 b3065e6
Nastavení enkoderu: cabac=0 / ref=1 / deblock=0:0:0 / analyse=0:0 / me=dia / subme=0 / psy=1 / psy_rd=1.00:0.00 / mixed_ref=0 / me_range=16 / chroma_me=1 / trellis=0 / 8x8dct=0 / cqm=0 / deadzone=21,11 / fast_pskip=1 / chroma_qp_offset=0 / threads=12 / lookahead_threads=2 / sliced_threads=0 / nr=0 / decimate=1 / interlaced=0 / bluray_compat=0 / constrained_intra=0 / bframes=0 / weightp=0 / keyint=240 / keyint_min=24 / scenecut=0 / intra_refresh=0 / rc_lookahead=0 / rc=abr / mbtree=0 / bitrate=3100 / ratetol=1.0 / qcomp=0.60 / qpmin=0 / qpmax=69 / qpstep=4 / vbv_maxrate=20000 / vbv_bufsize=25000 / nal_hrd=none / ip_ratio=1.40 / aq=0
Jazyk: English
Default: Ano
Forced: Ne
Color range: Limited
Color primaries: BT.709
Transfer characteristics: BT.709
Matrix coefficients: BT.709

Audio
ID: 2
Formát: AC-3
Formát/Info: Audio Coding 3
Commercial name: Dolby Digital
Codec ID: A_AC3
Duration: 1 h 49 min
Bit rate mode: Constant
Bit rate: 384 kb/s
Kanál(y): 6 kanály
Channel layout: L R C LFE Ls Rs
Sampling rate: 48,0 kHz
Frame rate: 31,250 FPS (1536 SPF)
Compression mode: Lossy
Stream size: 301 MiB (11%)
Jazyk: Czech
Service kind: Complete Main
Default: Ano
Forced: Ne[/roll]