Jak udělat výpis kvality z MediaInfo

Úvod » Často kladené otázky » Jak udělat výpis kvality z MediaInfo

Jak udělat výpis kvality z MediaInfo

Návod níže

Stáhni si a nainstaluj MediaInfo z jejich stránek: MediaInfo

  1. Otevři MI, klikni na soubor, otevřít, soubor Alt+O nebo přetáhni soubor do MI myší

2. Vyber správný soubor a zvol otevřít

3. Zvol zobrazit a vyber Text

4. Hotovo. Zkopíruj do txt šablony a pokud můžu poradit, tak si to ještě poskládej k sobě ať to je přehledné a člověk se v tom může lépe orientovat

Když to jen okopíruješ a vložíš

Hlavní
Unique ID                                : 168348648403719580577546155723716462494 (0x7EA6C532C2870C1E037BA147C20E879E)
Celý název a cesta                       : C:\Users\...\Downloads\Torrent soubory\Let  Flight (2012)(CZ) = CSFD 75%.mkv
Formát                                   : Matroska
Format version                           : Version 2
Velikost souboru                         : 2,57 GiB
Duration                                 : 2 h 18 min
Celkový BitRate                          : 2 655 kb/s
Použitý software                         : Lavf51.12.1
Enkódoval                                : Lavf51.12.1

Video
ID                                       : 1
Formát                                   : AVC
Formát/Info                              : Advanced Video Codec
Format profile                           : Baseline@L1.3
Format settings                          : 1 Ref Frames
Format settings, CABAC                   : Ne
Format settings, Reference frames        : 1 frame
Format settings, GOP                     : M=1, N=12
Codec ID                                 : V_MPEG4/ISO/AVC
Duration                                 : 2 h 18 min
Bit rate                                 : 2 474 kb/s
Šířka                                    : 1 280pixely
Výška                                    : 720pixely
Poměr stran                              : 16:9
Frame rate mode                          : Constant
Frame rate                               : 24,000 FPS
Color space                              : YUV
Chroma subsampling                       : 4:2:0
Bit depth                                : 8 bits
Scan type                                : Progressive
Bits/(Pixel*Frame)                       : 0.112
Stream size                              : 2,39 GiB (93%)
Default                                  : Ano
Forced                                   : Ne

Audio
ID                                       : 2
Formát                                   : MPEG Audio
Format version                           : Version 1
Format profile                           : Layer 3
Format settings                          : Joint stereo / MS Stereo
Codec ID                                 : A_MPEG/L3
Codec ID/Hint                            : MP3
Duration                                 : 2 h 18 min
Bit rate mode                            : Constant
Bit rate                                 : 128 kb/s
Kanál(y)                                 : 2 kanály
Sampling rate                            : 44,1 kHz
Compression mode                         : Lossy
Stream size                              : 127 MiB (5%)
Enkódoval                                : LAME3.97
Default                                  : Ano
Forced                                   : Ne

Když to poskládáš

Hlavní
Unique ID: 168348648403719580577546155723716462494 (0x7EA6C532C2870C1E037BA147C20E879E)
Celý název a cesta: C:\Users\...\Downloads\Torrent soubory\Let  Flight (2012)(CZ) = CSFD 75%.mkv
Formát: Matroska
Format version: Version 2
Velikost souboru: 2,57 GiB
Duration: 2 h 18 min
Celkový BitRate: 2 655 kb/s
Použitý software: Lavf51.12.1
Enkódoval: Lavf51.12.1

Video
ID: 1
Formát: AVC
Formát/Info: Advanced Video Codec
Format profile: Baseline@L1.3
Format settings: 1 Ref Frames
Format settings, CABAC: Ne
Format settings, Reference frames: 1 frame
Format settings, GOP: M=1, N=12
Codec ID: V_MPEG4/ISO/AVC
Duration: 2 h 18 min
Bit rate: 2 474 kb/s
Šířka: 1 280pixely
Výška: 720pixely
Poměr stran: 16:9
Frame rate mode: Constant
Frame rate: 24,000 FPS
Color space: YUV
Chroma subsampling: 4:2:0
Bit depth: 8 bits
Scan type: Progressive
Bits/(Pixel*Frame): 0.112
Stream size: 2,39 GiB (93%)
Default: Ano
Forced: Ne

Audio
ID: 2
Formát: MPEG Audio
Format version: Version 1
Format profile: Layer 3
Format settings: Joint stereo / MS Stereo
Codec ID: A_MPEG/L3
Codec ID/Hint: MP3
Duration: 2 h 18 min
Bit rate mode: Constant
Bit rate: 128 kb/s
Kanál(y): 2 kanály
Sampling rate: 44,1 kHz
Compression mode: Lossy
Stream size: 127 MiB (5%)
Enkódoval: LAME3.97
Default: Ano
Forced: Ne